KickAss Torrent

VA - Real Audiophile Jazz (...

VA - Real Audiophile Jazz (2019) [DR16 FLAC] vtwin88cube


  • Típus: Audio > FLAC
  • Méret: 550.6 MB 
  • Seed: 47
  • Leech: 2
Various Artists
Real Audiophile Jazz (2019)


FLAC LOSSLESS 16bit-44kHz

Dynamic Range 16

DR         Peak         RMS     Duration Track
--------------------------------------------------------------------------------
DR15       0.00 dB   -21.71 dB      5:23 07-I'm Home
DR15       0.00 dB   -17.13 dB      6:23 04-Handara
DR15      -0.03 dB   -18.55 dB      5:52 06-The Long Way Home
DR16      -0.01 dB   -18.16 dB      4:32 13-Garden Wall
DR15      -2.67 dB   -22.47 dB      4:22 16-Blue Moon
DR16      -4.22 dB   -22.57 dB      2:42 02-Toyos
DR16      -2.78 dB   -24.41 dB      4:31 19-Quotation
DR15      -0.01 dB   -17.14 dB      5:25 05-Rainbow Seeker
DR16      -0.20 dB   -18.87 dB      7:34 12-Upper Kern
DR16      -0.80 dB   -19.84 dB      5:17 10-The Inner Look
DR17      -1.15 dB   -22.26 dB      5:57 20-Memphis Overkill
DR18      -1.33 dB   -22.89 dB      5:44 14-Tokyo Blues
DR16       0.00 dB   -18.52 dB      3:34 17-Trippin' With Clyde
DR15      -0.20 dB   -20.38 dB      7:05 01-When I Cry
DR16      -4.03 dB   -23.32 dB      5:04 08-Life Is A Bitch
DR16      -2.36 dB   -22.54 dB      2:28 15-Sagannaihon, Ding
DR16      -2.16 dB   -22.06 dB      7:05 11-Blues For Groundhog
DR15      -0.04 dB   -18.81 dB      5:17 09-Healing The Wounds
DR16      -0.20 dB   -20.46 dB      3:24 18-Serpent's Tooth
DR16       0.00 dB   -17.92 dB      5:35 03-Homecoming
--------------------------------------------------------------------------------

Number of tracks:  20
Official DR value: DR16

Samplerate:        44100 Hz
Channels:          2
Bits per sample:   16
Bitrate:           933 kbps
Codec:             FLAC


Tracklist:

01.-Mimi Fox - When I Cry
02.-Ichu - Toyos
03.-Yellowjackets - Homecoming
04.-Bob James And Earl Klugh - Handara
05.-Joe Sample - Rainbow Seeker
06.-Dave Samuels - The Long Way Home
07.-Al Jarreau - I'm Home
08.-Nora Wixted - Life Is A Bitch
09.-The Crusaders - Healing The Wounds
10.-Lee Ritenour - The Inner Look
11.-Ray Brown - Blues For Groundhog
12.-Larry Carlton - Upper Kern
13.-Dave Weckl - Garden Wall
14.-Mark Little - Tokyo Blues
15.-Patrick Palomo - Sagannaihon, Ding
16.-Denny Berthiaume - Blue Moon
17.-Michael Allen Harrison - Trippin' With Clyde
18.-Victor Feldman - Serpent's Tooth
19.-Isla Eckinger - Quotation
20.-Lenny MacDowell - Memphis Overkill




Thanks 4 Seeding
Cheers!                                                
00.-Real Audiophile Jazz.m3u788 B
01.-Mimi Fox - When I Cry.flac35.43 MiB
02.-Ichu - Toyos.flac11.98 MiB
03.-Yellowjackets - Homecoming.flac37.49 MiB
04.-Bob James And Earl Klugh - Handara.flac35.84 MiB
05.-Joe Sample - Rainbow Seeker.flac33.96 MiB
06.-Dave Samuels - The Long Way Home.flac31.36 MiB
07.-Al Jarreau - I'm Home.flac25.44 MiB
08.-Nora Wixted - Life Is A Bitch.flac26.16 MiB
09.-The Crusaders - Healing The Wounds.flac30.57 MiB
10.-Lee Ritenour - The Inner Look.flac26.7 MiB
11.-Ray Brown - Blues For Groundhog.flac36.12 MiB
12.-Larry Carlton - Upper Kern.flac47.82 MiB
13.-Dave Weckl - Garden Wall.flac29.88 MiB
14.-Mark Little - Tokyo Blues.flac28.19 MiB
15.-Patrick Palomo - Sagannaihon, Ding.flac12.36 MiB
16.-Denny Berthiaume - Blue Moon.flac14.79 MiB
17.-Michael Allen Harrison - Trippin' With Clyde.flac23.87 MiB
18.-Victor Feldman - Serpent's Tooth.flac20.46 MiB
19.-Isla Eckinger - Quotation.flac17.05 MiB
20.-Lenny MacDowell - Memphis Overkill.flac24.86 MiB
auCDtect.txt8.47 KiB
DR16.txt2.87 KiB
folder.png244.01 KiB